Share Ratio

Seeds 31 Peers 34

The Gentlemen 2019 The Gentlemen 2019 free movie torrent

Trusted uploader The Gentlemen 2019

The Gentlemen 2019

An American immigrant is trying to sell London’s highly lucrative cannabis empire, inciting conspiracy, schemes, bribery and extortion, trying to steal its domain.
Director:
Guy Ritchie Author:
Guy Ritchie (story), John Atkinson (story) A talented Oxford graduate from Oxford, using his unique skills and courage, he created the marijuana empire using the estates of poor British nobles. However, when he tries to sell his kingdom to fellow American billionaires, a series of events involving blackmail, fraud, persecution and murder take place between street thieves, Russian oligarchs, Triad gangsters and sewer journalists.

Director: Guy Ritchie

Author: Guy Ritchie (screenshots), Guy Ritchie (screenshots)

Stars: Matthew McConaughey, Charlie Hunnam, Michelle Dockery

Plot / Story:

An American immigrant is trying to sell London’s highly lucrative cannabis empire, inciting conspiracy, schemes, bribery and extortion, trying to steal its domain.

Generally

Full name:

Format: AVI

Format / Information: Audio Video Interleave

File size: 938 MiB

Duration: 1 hour 53 minutes

Total transmission speed: 1154 kb / s

Subject: (HI)

Video

ID: 0

Format: Visual MPEG-4

Profile format: Advanced

Sets the format, BVOP: 2

Format installation, QPel: No.

Setting format, GMC: No bending point

Setting format, Matrix: Default ()

Codec ID: XVID

Codec / tip ID: XviD

Duration: 1 hour 53 minutes

Download speed: 1,013 kbps

Width: 720 pixels

Height: 304 pixels

Show display ratio :: 1

Frame rate: (24000/1001) FPS

Color space: YUV

Chrome substrate: 4: 2: 0

Bit depth: 8 pieces

Type of scan: progressive

Compression Mode: Loss

Bit / (Pixel *) Frame:

Stream size: 824 MiB (88%)

The library writes: XviD 64

Sound

ID: 1

Format: MPEG audio

Version format: Version 1

Profile format: Tier 3

Codec ID: 55

Codec ID / Instructions: MP3

Duration: 1 hour 53 minutes

Bitrate mode: constant

Upload speed: 128 kbps

Channels: 2 channels

Sampling rate: kHz

Compression Mode: Loss

Stream size: 104 MiB (11%)

Alignment: alignment with interconnected layers

Intertwined, duration: 24 ms (video frame)

Snapshot:

Please seed as far as possible

Or at least 1: 1

Enjoy the peeps

  1. The Gentlemen 2019 HDRip.AAC Torrent Download
  2. The Gentlemen 2019 BluRay license Full Torrent
  3. The Gentlemen 2019 YIFY Download Full Movie Torrent

Get uTorrent Get uTorrent

19 1 User Rating

Leave a Reply